Shimoseka 1080p VOSTFR


L’histoire se passe 16 années après l’application de la « Loi au maintien à l’ordre public et de la morale pour le développement de la Jeunesse » qui interdit le langage grossier ou les situations jugées indécentes en public dans le pays. Nous suivons Tanukichi Okuma qui s’inscrit dans une école d’élite de bonnes mœurs mais qui est enrôlé par l’Organisation Anti-Système (SOX). Tanukichi va prendre part aux actes obscènes contre l’école.

Shimoseka.S01.UNCENSORED.SUBFRENCH.1080p.BluRay.x264-RiPiT

mot de passe : sox
Source....: REMUX TTN (Merci)
TMDb......: https://www.themoviedb.org/tv/63323

Team Note.: We're looking for contacts, tools, or some help for Netflix, Amazon, widevine / playready stuff, please send a mail

Contact...: [email protected]
 
---------------------------------------------------------------------------------------------------------
 
General
Complete name                            : Shimoseka.E01.UNCENSORED.SUBFRENCH.1080p.BluRay.x264-RiPiT.mkv
Format                                   : Matroska
Format version                           : Version 4
File size                                : 1.46 GiB
Duration                                 : 23 min 40 s
Overall bit rate                         : 8 834 kb/s
Movie name                               : Shimoseka.E01.UNCENSORED.SUBFRENCH.1080p.BluRay.x264-RiPiT
Encoded date                             : UTC 2015-04-01 20:00:00
Writing application                      : mkvmerge v38.0.0 ('The Silent Type') 64-bit
Writing library                          : libebml v1.3.9 + libmatroska v1.5.2

Video
ID                                       : 1
Format                                   : AVC
Format/Info                              : Advanced Video Codec
Format profile                           : [email protected]
Format settings                          : CABAC / 4 Ref Frames
Format settings, CABAC                   : Yes
Format settings, Reference frames        : 4 frames
Codec ID                                 : V_MPEG4/ISO/AVC
Duration                                 : 23 min 40 s
Bit rate                                 : 8 384 kb/s
Width                                    : 1 920 pixels
Height                                   : 1 080 pixels
Display aspect ratio                     : 16:9
Frame rate mode                          : Constant
Frame rate                               : 23.976 (24000/1001) FPS
Color space                              : YUV
Chroma subsampling                       : 4:2:0
Bit depth                                : 8 bits
Scan type                                : Progressive
Bits/(Pixel*Frame)                       : 0.169
Stream size                              : 1.39 GiB (95%)
Writing library                          : x264 core 161
Encoding settings                        : cabac=1 / ref=4 / deblock=1:-1:-1 / analyse=0x3:0x113 / me=umh / subme=10 / psy=1 / psy_rd=1.00:0.00 / mixed_ref=1 / me_range=16 / chroma_me=1 / trellis=2 / 8x8dct=1 / cqm=0 / deadzone=21,11 / fast_pskip=0 / chroma_qp_offset=-2 / threads=24 / lookahead_threads=2 / sliced_threads=0 / nr=0 / decimate=1 / interlaced=0 / bluray_compat=0 / constrained_intra=0 / bframes=3 / b_pyramid=2 / b_adapt=1 / b_bias=0 / direct=3 / weightb=1 / open_gop=0 / weightp=2 / keyint=240 / keyint_min=23 / scenecut=40 / intra_refresh=0 / rc_lookahead=50 / rc=2pass / mbtree=1 / bitrate=8384 / ratetol=1.0 / qcomp=0.60 / qpmin=0 / qpmax=69 / qpstep=4 / cplxblur=20.0 / qblur=0.5 / ip_ratio=1.40 / aq=1:1.00
Default                                  : Yes
Forced                                   : No

Audio
ID                                       : 2
Format                                   : AC-3
Format/Info                              : Audio Coding 3
Commercial name                          : Dolby Digital
Codec ID                                 : A_AC3
Duration                                 : 23 min 40 s
Bit rate mode                            : Constant
Bit rate                                 : 448 kb/s
Channel(s)                               : 2 channels
Channel layout                           : L R
Sampling rate                            : 48.0 kHz
Frame rate                               : 31.250 FPS (1536 SPF)
Compression mode                         : Lossy
Stream size                              : 75.9 MiB (5%)
Language                                 : Japanese
Service kind                             : Complete Main
Default                                  : Yes
Forced                                   : No

Text
ID                                       : 3
Format                                   : UTF-8
Codec ID                                 : S_TEXT/UTF8
Codec ID/Info                            : UTF-8 Plain Text
Duration                                 : 23 min 35 s
Bit rate                                 : 88 b/s
Count of elements                        : 397
Stream size                              : 15.3 KiB (0%)
Language                                 : French
Default                                  : Yes
Forced                                   : No